<?xml version="1.0" standalone="no"?>
<!DOCTYPE svg PUBLIC "-//W3C//DTD SVG 1.1//EN" "http://www.w3.org/Graphics/SVG/1.1/DTD/svg11.dtd" >
<svg xmlns="http://www.w3.org/2000/svg">
<metadata>Generated by IcoMoon</metadata>
<defs>
<font id="icomoon" horiz-adv-x="1024">
<font-face units-per-em="1024" ascent="960" descent="-64" />
<missing-glyph horiz-adv-x="1024" />
<glyph unicode="&#x20;" d="" horiz-adv-x="512" />
<glyph unicode="&#xe600;" d="M170.667 234.586c0 23.564 18.971 42.667 42.704 42.667h597.259c23.585 0 42.704-18.938 42.704-42.667 0-23.564-18.971-42.667-42.704-42.667h-597.259c-23.585 0-42.704 18.938-42.704 42.667zM256 447.919c0 23.564 19.446 42.667 42.772 42.667h426.456c23.622 0 42.772-18.938 42.772-42.667 0-23.564-19.446-42.667-42.772-42.667h-426.456c-23.622 0-42.772 18.938-42.772 42.667zM170.667 661.252c0 23.564 18.971 42.667 42.704 42.667h597.259c23.585 0 42.704-18.938 42.704-42.667 0-23.564-18.971-42.667-42.704-42.667h-597.259c-23.585 0-42.704 18.938-42.704 42.667z" />
<glyph unicode="&#xe601;" d="M170.667 448c0 23.564 19.446 42.667 42.772 42.667h426.456c23.622 0 42.772-18.938 42.772-42.667 0-23.564-19.446-42.667-42.772-42.667h-426.456c-23.622 0-42.772 18.938-42.772 42.667zM170.667 234.667c0 23.564 19.33 42.667 42.54 42.667h256.253c23.494 0 42.54-18.938 42.54-42.667 0-23.564-19.33-42.667-42.54-42.667h-256.253c-23.494 0-42.54 18.938-42.54 42.667zM170.667 661.333c0 23.564 18.971 42.667 42.704 42.667h597.259c23.585 0 42.704-18.938 42.704-42.667 0-23.564-18.971-42.667-42.704-42.667h-597.259c-23.585 0-42.704 18.938-42.704 42.667z" />
<glyph unicode="&#xe602;" d="M170.667 661.252c0 23.564 18.971 42.667 42.704 42.667h597.259c23.585 0 42.704-18.938 42.704-42.667 0-23.564-18.971-42.667-42.704-42.667h-597.259c-23.585 0-42.704 18.938-42.704 42.667zM341.333 447.919c0 23.564 19.446 42.667 42.772 42.667h426.456c23.622 0 42.772-18.938 42.772-42.667 0-23.564-19.446-42.667-42.772-42.667h-426.456c-23.622 0-42.772 18.938-42.772 42.667zM512 234.586c0 23.564 19.33 42.667 42.54 42.667h256.253c23.494 0 42.54-18.938 42.54-42.667 0-23.564-19.33-42.667-42.54-42.667h-256.253c-23.494 0-42.54 18.938-42.54 42.667z" />
<glyph unicode="&#xe603;" d="M801.409 440.563l-401.772 341.737c-18.033 15.339-32.652 8.673-32.652-14.76v-211.581l-171.736-84.746c-42.253-20.851-41.989-53.387 1.358-73.020l170.378-77.168v-207.568c0-23.419 14.454-30.11 32.652-14.631l401.772 341.737z" />
<glyph unicode="&#xe604;" d="M366.282 621.171l7.932 7.51c17.593 15.536 19.492 42.617 4.219 60.513-15.273 17.939-41.937 19.828-59.53 4.292l-91.045-80.341c-18.774-16.609-19.449-46.007-1.434-63.474l91.003-88.323c16.876-16.351 43.582-15.708 59.656 1.416 16.074 17.167 15.441 44.333-1.392 60.685l-9.408 11.888h233.604c69.697 0 126.358-57.766 126.358-128.751 0-71.114-56.661-128.751-126.569-128.751h-24.217v-85.834h24.217c116.528 0 210.991 96.048 210.991 214.585 0 118.365-94.421 214.585-210.78 214.585h-233.604z" />
<glyph unicode="&#xe605;" d="M554.667 490.667v341.683c0 22.891-19.103 42.317-42.667 42.317-23.728 0-42.667-18.946-42.667-42.317v-341.683h-341.683c-22.891 0-42.317-19.103-42.317-42.667 0-23.728 18.946-42.667 42.317-42.667h341.683v-341.683c0-22.891 19.103-42.317 42.667-42.317 23.728 0 42.667 18.946 42.667 42.317v341.683h341.683c22.891 0 42.317 19.103 42.317 42.667 0 23.728-18.946 42.667-42.317 42.667h-341.683z" />
<glyph unicode="&#xe606;" d="M469.333 320v85.333h77.44c21.717 0 55.979-8.533 55.979-44.8s-29.653-40.533-50.944-40.533h-82.475zM341.333 320h-42.667v-128h256.128c94.037 0 177.323 49.024 177.323 168.533 0 63.573-26.667 107.221-61.824 134.101 14.763 21.973 24.73 54.014 24.73 86.526 0 119.339-79.301 165.506-162.031 165.506h-234.325v-128h42.667v-298.667zM469.333 618.667h72.192c11.435 0 41.472-4.267 41.472-42.624s-31.403-42.709-41.131-42.709h-72.533v85.333z" />
<glyph unicode="&#xe607;" d="M577.519 448l262.4 262.4c17.561 17.561 17.839 47.17-0.278 65.241-18.21 18.21-47.309 18.21-65.241 0.278l-262.4-262.4-262.4 262.4c-17.561 17.561-47.17 17.839-65.241-0.278-18.21-18.21-18.21-47.309-0.278-65.241l262.4-262.4-262.4-262.354c-17.561-17.608-17.839-47.17 0.278-65.287 18.21-18.21 47.309-18.21 65.241-0.278l262.4 262.4 262.4-262.4c17.561-17.561 47.124-17.793 65.241 0.278 18.21 18.21 18.21 47.309 0.278 65.287l-262.4 262.354z" />
<glyph unicode="&#xe608;" d="M572.821 447.52l182.827 183.339c16.64 16.683 16.597 43.691-0.085 60.331s-43.691 16.597-60.331-0.085l-182.741-183.253-183.637 183.637c-16.683 16.683-43.691 16.683-60.373 0-16.64-16.64-16.64-43.691 0-60.331l183.765-183.723-183.637-184.149c-16.64-16.683-16.597-43.691 0.085-60.331 16.725-16.64 43.733-16.597 60.373 0.085l183.509 184.021 182.869-182.869c16.64-16.64 43.648-16.64 60.331 0 16.683 16.683 16.683 43.691 0 60.373l-182.955 182.955z" />
<glyph unicode="&#xe609;" d="M512 106.667c141.385 0 256 117.554 256 256 0 195.335-256 426.667-256 426.667s-256-231.332-256-426.667c0-138.446 114.615-256 256-256z" />
<glyph unicode="&#xe60a;" d="M430.985 822.483v0c-6.433 6.135-14.091 9.517-21.461 9.517-30.123 0-49.524-19.594-49.524-50.017 0-4.979 1.498-10.088 4.308-14.869-13.702-21.716-21.641-47.503-21.641-75.162 0-34.699 12.494-66.45 33.187-90.915v0c-71.551-25.609-118.314-72.988-119.126-132.175 1.238-99.211 110.788-83.491 110.788-83.491s203.171-252.344 41.545-180.896c-172.539 78.301-194.631-61.091-194.631-61.091s6.041 59.7 85.543 48.215c79.501-11.485 125.272-112.36 247.573-112.36 128.743 0 178.031 211.878 180.030 306.132 16.128 7.829 83.091 12.621 83.091 83.491 0 75.806-95.217 128.359-213.359 146.289 14.346 22.053 22.692 48.443 22.692 76.802 0 77.347-62.083 140.049-138.667 140.049-17.76 0-34.741-3.372-50.348-9.517zM533.333 456.592c37.992 49.79 131.192 95.311 152.533 95.311 24.443 0 55.467-27.214 55.467-68.079 0-36.525-22.736-54.463-41.6-54.463-18.183 0-99.89 4.205-166.4 27.232zM377.333 572.592c6.090-0.621 37.024 14.323 121.333 14.323 86.841 0 115.759-18.179 121.333-28.646-96.563-30.424-161.778-128.908-161.778-128.908s31.631 103.759-80.889 143.232zM709.955 688.713l-7.923-21.505-8.469 21.712-21.712 8.469 21.505 7.923 7.923 21.505 8.469-21.712 21.712-8.469-21.505-7.923zM314.049 633.45l-12.117-32.89-12.953 33.207-33.207 12.953 32.89 12.117 12.117 32.89 12.953-33.207 33.207-12.953-32.89-12.117z" />
<glyph unicode="&#xe60b;" d="M566.761 302.722h-145.611l-35.821-190.737h-46.521l35.821 190.737h-118.629v43.265h126.538l38.613 205.158h-129.794v44.66h138.168l36.752 193.528h46.521l-36.752-193.528h146.076l36.752 193.528h46.521l-36.752-193.528h106.533v-44.66h-114.907l-38.613-205.158h118.629v-43.265h-127.003l-35.821-190.737h-46.521l35.821 190.737zM429.059 345.987h146.076l38.613 205.158h-146.076l-38.613-205.158z" />
<glyph unicode="&#xe60c;" d="M213.376 789.333c-47.317 0-85.376-38.357-85.376-85.632v-511.403c0-47.275 38.144-85.632 85.376-85.632h597.248c47.317 0 85.376 38.357 85.376 85.632v511.403c0 47.275-38.144 85.632-85.376 85.632h-597.248zM213.376 704h597.248c0 0 0.043-0.043 0.043-0.299v-469.035l-170.667 170.667v-128l-213.333 256-213.333-264.107v434.475c0 0.299 0 0.299 0.043 0.299zM704 490.667c35.328 0 64 28.672 64 64s-28.672 64-64 64c-35.328 0-64-28.672-64-64s28.672-64 64-64z" />
<glyph unicode="&#xe60d;" d="M500.608 273.237c-9.899-38.315 66.859-38.485 66.859-38.485v-42.667h-268.8v42.667c0 0 101.717 0.555 118.059 42.667 0.384 0.981 147.413 383.36 147.627 383.915 16.469 42.667-65.152 42.667-65.152 42.667v42.667h268.8v-42.667c0 0-100.523 0-117.931-42.667-0.427-0.981-149.461-388.096-149.461-388.096z" />
<glyph unicode="&#xe60e;" d="M358.912 490.667h298.88c23.509 0 42.539-18.944 42.539-42.667 0-23.552-19.029-42.667-42.539-42.667h-298.88c-23.509 0-42.581 18.944-42.581 42.667 0 23.552 19.072 42.667 42.581 42.667zM682.709 234.667c117.717 0 213.291 95.531 213.291 213.333 0 117.675-95.573 213.333-213.291 213.333h-128.043v-85.333h128.043c70.571 0 127.957-57.429 127.957-128 0-70.656-57.344-128-127.957-128h-128.043v-85.333h128.043zM341.291 234.667c-117.717 0-213.291 95.659-213.291 213.333 0 117.803 95.573 213.333 213.291 213.333h128.043v-85.333h-128.043c-70.613 0-127.957-57.344-127.957-128 0-70.571 57.387-128 127.957-128h128.043v-85.333h-128.043z" />
<glyph unicode="&#xe60f;" d="M810.667 661.333h-42.667v85.333h-85.333v-85.333h-256c-67.842-6.337-124.816-63.071-128-128v-256h-85.333v-85.333h85.333v-42.667c3.184-71.308 60.243-128 128-128h384c71.026 0 128 56.776 128 128v384c0 64.972-57.016 121.663-128 128v0zM853.333 149.333c0-23.552-19.072-42.667-42.667-42.667h-384c-23.552 0-42.667 19.072-42.667 42.667v384c0 23.552 19.115 42.667 42.667 42.667h384c23.595 0 42.667-19.072 42.667-42.667v-384zM85.333 746.667h85.333v-170.667h-85.333v170.667zM85.333 490.667h85.333v-170.667h-85.333v170.667zM469.333 874.667h170.667v-85.333h-170.667v85.333zM213.333 874.667h170.667v-85.333h-170.667v85.333z" />
<glyph unicode="&#xe610;" d="M512 362.667c47.128 0 85.333 38.205 85.333 85.333s-38.205 85.333-85.333 85.333c-47.128 0-85.333-38.205-85.333-85.333s38.205-85.333 85.333-85.333zM256 362.667c47.128 0 85.333 38.205 85.333 85.333s-38.205 85.333-85.333 85.333c-47.128 0-85.333-38.205-85.333-85.333s38.205-85.333 85.333-85.333zM768 362.667c47.128 0 85.333 38.205 85.333 85.333s-38.205 85.333-85.333 85.333c-47.128 0-85.333-38.205-85.333-85.333s38.205-85.333 85.333-85.333z" />
<glyph unicode="&#xe611;" d="M554.667 490.667v170.539c0 23.339-19.115 42.795-42.667 42.795-23.723 0-42.667-19.157-42.667-42.795v-170.539h-170.581c-23.339 0-42.752-19.115-42.752-42.667 0-23.723 19.157-42.667 42.752-42.667h170.581v-170.581c0-23.339 19.115-42.752 42.667-42.752 23.723 0 42.667 19.157 42.667 42.752v170.581h170.539c23.339 0 42.795 19.072 42.795 42.667 0 23.723-19.157 42.667-42.795 42.667h-170.539z" />
<glyph unicode="&#xe612;" d="M408.421 126.942l52.078 69.416c-116.623 24.068-204.306 127.327-204.306 251.065 0 41.63 10.159 80.857 27.754 115.597l-7.948 77.813-86.273 15.127c-38.906-60.122-61.725-131.589-61.725-208.537 0-191.968 140.787-350.606 324.647-379.449l-44.226 58.968zM844.851 425.278l-76.082 26.087c0-1.346 0.192-2.628 0.192-3.942 0-133.16-101.528-242.54-231.419-255.135l-49.707-66.275 47.335-62.013c201.807 11.762 361.983 178.668 361.983 383.423 0 16.12-1.314 31.888-3.237 47.463l-49.066-69.608zM334.998 694.033l5.801-56.693c45.476 41.182 105.598 66.468 171.778 66.468 115.309 0 212.799-76.146 245.040-180.879l63.615-21.793 52.911 76.306c-53.392 148.318-194.884 254.558-361.566 254.558-109.54 0-208.12-46.021-278.145-119.475l100.567-18.492z" />
<glyph unicode="&#xe613;" d="M725.453 320.725c39.935 53.376 63.871 119.467 63.871 191.275 0 176.725-143.273 320-319.995 320s-319.995-143.275-319.995-320c0-176.725 143.273-320 319.995-320 71.85 0 137.897 23.936 191.272 63.872l178.473-178.432c17.92-17.92 46.933-17.92 64.852 0 17.877 17.877 17.877 46.891 0 64.811l-178.473 178.475zM234.667 512c0 129.579 105.088 234.667 234.667 234.667 129.621 0 234.667-105.088 234.667-234.667 0-129.621-105.045-234.667-234.667-234.667-129.579 0-234.667 105.045-234.667 234.667v0z" />
<glyph unicode="&#xe614;" d="M682.667 704v42.667c0 50.773-37.931 85.333-85.333 85.333h-170.667c-47.147 0-85.333-34.731-85.333-85.333v-42.667h-128c-23.637 0-42.667-19.115-42.667-42.667 0-23.595 19.029-42.667 42.667-42.667v-469.333c0-47.957 38.315-85.333 85.333-85.333h426.667c46.848 0 85.333 37.205 85.333 85.333v469.333c23.595 0 42.667 19.072 42.667 42.667 0 23.552-19.072 42.667-42.667 42.667h-128zM426.667 746.667h170.667v-42.667h-170.667v42.667zM725.333 149.333c0-2.261-426.667 0-426.667 0 0.171-2.048 0.043 346.197 0 469.333h426.667v-469.333z" />
<glyph unicode="&#xe615;" d="M810.667 192l-256 554.667h-85.333l-256-554.667h98.133l59.008 128h283.093l58.965-128h98.133zM409.771 405.333l102.229 221.867 102.229-221.867h-204.459z" />
<glyph unicode="&#xe616;" d="M503.795 66.209l148.383 175.331c15.176 17.932 8.581 32.469-14.821 32.469h-78.641l-20.719 42.199c-20.756 42.274-53.348 41.56-72.678-1.334l-18.415-40.865h-76.019c-23.721 0-30.863-14.283-15.472-32.469l148.383-175.331zM503.806 832l-148.393-174.462c-15.177-17.843-8.582-32.308 14.822-32.308h78.647l20.392-41.324c20.939-42.432 53.679-42.018 73.011 0.663l18.417 40.662h76.024c23.723 0 30.305 14.87 15.473 32.308l-148.393 174.462z" />
</font>
</defs>
</svg>
